<?xml version="1.0" standalone="no"?>
<!DOCTYPE svg PUBLIC "-//W3C//DTD SVG 1.1//EN" "http://www.w3.org/Graphics/SVG/1.1/DTD/svg11.dtd" >
<svg xmlns="http://www.w3.org/2000/svg">
<metadata>
<json>
<![CDATA[
{
	"fontFamily": "unitheme",
	"description": "Font unitheme by theme UniTheme.\nFont generated by IcoMoon.",
	"majorVersion": 1,
	"minorVersion": 0,
	"fontURL": "http://unitheme.net",
	"copyright": "Alexbranding",
	"version": "Version 1.0",
	"fontId": "unitheme",
	"psName": "unitheme",
	"subFamily": "Regular",
	"fullName": "unitheme"
}
]]>
</json>
</metadata>
<defs>
<font id="unitheme" horiz-adv-x="1024">
<font-face units-per-em="1024" ascent="960" descent="-64" />
<missing-glyph horiz-adv-x="1024" />
<glyph unicode="&#x20;" horiz-adv-x="512" d="" />
<glyph unicode="&#xe900;" glyph-name="share" data-tags="share" d="M864 256c-45.16 0-85.92-18.738-115.012-48.83l-431.004 215.502c1.314 8.252 2.016 16.706 2.016 25.328s-0.702 17.076-2.016 25.326l431.004 215.502c29.092-30.090 69.852-48.828 115.012-48.828 88.366 0 160 71.634 160 160s-71.634 160-160 160-160-71.634-160-160c0-8.622 0.704-17.076 2.016-25.326l-431.004-215.504c-29.092 30.090-69.852 48.83-115.012 48.83-88.366 0-160-71.636-160-160 0-88.368 71.634-160 160-160 45.16 0 85.92 18.738 115.012 48.828l431.004-215.502c-1.312-8.25-2.016-16.704-2.016-25.326 0-88.368 71.634-160 160-160s160 71.632 160 160c0 88.364-71.634 160-160 160z" />
<glyph unicode="&#xe901;" glyph-name="left-arrow" data-tags="left-arrow" d="M757.16-64c-5.547 0-11.095 2.124-15.32 6.349l-490.32 490.341c-8.473 8.473-8.473 22.168 0 30.641l490.32 490.32c8.473 8.473 22.168 8.473 30.641 0s8.473-22.168 0-30.641l-474.999-474.999 474.999-474.999c8.473-8.473 8.473-22.168 0-30.641-4.226-4.247-9.773-6.371-15.32-6.371z" />
<glyph unicode="&#xe902;" glyph-name="right-arrow" data-tags="right-arrow" d="M266.84-64c-5.547 0-11.095 2.124-15.32 6.349-8.473 8.473-8.473 22.168 0 30.641l474.999 474.999-474.999 474.999c-8.473 8.473-8.473 22.168 0 30.641s22.168 8.473 30.641 0l490.32-490.298c8.473-8.473 8.473-22.168 0-30.641l-490.32-490.341c-4.247-4.226-9.773-6.349-15.32-6.349z" />
<glyph unicode="&#xe903;" glyph-name="right" data-tags="right" d="M1024 448.003l-163.881 163.879v-131.626h-860.119v-64.509h860.119v-131.628z" />
<glyph unicode="&#xe904;" glyph-name="visibility-button" data-tags="visibility-button" d="M512 797.091c-232.727 0-432.873-144.291-512-349.091 79.127-204.8 279.273-349.091 512-349.091s432.873 144.291 512 349.091c-79.127 204.8-279.273 349.091-512 349.091zM512 215.273c-130.327 0-232.727 102.4-232.727 232.727s102.4 232.727 232.727 232.727c130.327 0 232.727-102.4 232.727-232.727s-102.4-232.727-232.727-232.727zM512 587.636c-79.127 0-139.636-60.509-139.636-139.636s60.509-139.636 139.636-139.636c79.127 0 139.636 60.509 139.636 139.636s-60.509 139.636-139.636 139.636z" />
<glyph unicode="&#xe905;" glyph-name="mail-forward" data-tags="mail-forward, share" d="M1024 594.286q0-14.857-10.857-25.714l-292.571-292.571q-10.857-10.857-25.714-10.857t-25.714 10.857-10.857 25.714v146.286h-128q-56 0-100.286-3.429t-88-12.286-76-24.286-60.286-39.714-45.714-57.714-27.714-79.143-10-103.429q0-31.429 2.857-70.286 0-3.429 1.429-13.429t1.429-15.143q0-8.571-4.857-14.286t-13.429-5.714q-9.143 0-16 9.714-4 5.143-7.429 12.571t-7.714 17.143-6 13.714q-72.571 162.857-72.571 257.714 0 113.714 30.286 190.286 92.571 230.286 500 230.286h128v146.286q0 14.857 10.857 25.714t25.714 10.857 25.714-10.857l292.571-292.571q10.857-10.857 10.857-25.714z" />
<glyph unicode="&#xe906;" glyph-name="bold-arrow-bottom" data-tags="bold-arrow-bottom" d="M904.533 763.733l-392.533-392.533-392.533 392.533-119.467-119.467 512-512 512 512z" />
<glyph unicode="&#xe907;" glyph-name="bold-arrow-top" data-tags="bold-arrow-top" d="M512 763.733l-512-512 119.467-119.467 392.533 392.533 392.533-392.533 119.467 119.467z" />
<glyph unicode="&#xe908;" glyph-name="close" data-tags="close" d="M1023.977 928.087l-31.863 31.913-480.114-480.082-480.082 480.082-31.895-31.913 480.082-480.078-480.082-480.082 31.895-31.927 480.082 480.146 480.114-480.146 31.863 31.927-480.082 480.082z" />
<glyph unicode="&#xe909;" glyph-name="bottom-sight" data-tags="bottom-sight" d="M970.771 729.867l-458.773-457.277-458.77 457.277-53.229-53.402 511.999-510.332 512.001 510.332z" />
<glyph unicode="&#xe90a;" glyph-name="check" data-tags="check" d="M1019.819 711.543l-634.909-634.909c-5.592-5.592-14.647-5.592-20.227 0l-360.502 360.515c-5.579 5.566-5.579 14.621 0 20.214l87.597 87.597c5.592 5.579 14.647 5.579 20.227 0l262.804-262.791 537.199 537.199c5.605 5.579 14.634 5.579 20.227 0l87.584-87.597c5.592-5.579 5.592-14.621 0-20.227z" />
<glyph unicode="&#xe90b;" glyph-name="refresh2" data-tags="refresh" d="M994.893 848.605c-20.080 4.309-39.834-8.484-44.133-28.555l-27.012-126.052c-86.001 146.715-243.855 238.782-416.864 238.782-266.439 0-483.201-216.76-483.201-483.201 0-20.526 16.64-37.169 37.169-37.169 20.526 0 37.169 16.643 37.169 37.169 0 225.448 183.414 408.863 408.863 408.863 146.979 0 281.045-78.511 353.629-203.518l-123.92 26.557c-20.077 4.303-39.834-8.486-44.13-28.558-4.3-20.071 8.486-39.834 28.558-44.133l212.716-45.584c3.613-0.776 7.282-0.999 10.901-0.696 6.027 0.508 11.903 2.486 17.077 5.834 8.278 5.355 14.089 13.779 16.155 23.417l45.587 212.716c4.294 20.068-8.492 39.825-28.564 44.13zM957.492 498.298c-20.514-0.678-36.601-17.859-35.923-38.374 3.604-109.153-35.51-213.171-110.146-292.906-74.633-79.727-175.847-125.626-284.997-129.23-4.55-0.149-9.075-0.223-13.607-0.223-142.421 0.006-273.62 73.973-347.715 193.816l129.192-34.642c19.828-5.314 40.211 6.447 45.528 26.277 5.317 19.828-6.447 40.208-26.274 45.531l-210.123 56.337c-9.521 2.548-19.67 1.216-28.204-3.708-8.54-4.924-14.77-13.045-17.324-22.566l-56.334-210.129c-5.317-19.828 6.447-40.208 26.274-45.528 3.226-0.865 6.462-1.282 9.649-1.282 16.408 0 31.427 10.955 35.879 27.556l31.665 118.1c88.088-138.707 241.419-224.107 407.768-224.101 5.343 0 10.717 0.086 16.081 0.265 128.995 4.264 248.612 58.502 336.817 152.727s134.431 217.161 130.17 346.159c-0.675 20.512-17.865 36.649-38.377 35.92z" />
<glyph unicode="&#xe90c;" glyph-name="filter-empty" data-tags="filter-empty" d="M383.6-1.2v348.6l-354.6 527c-14.4 16.6-8.2 62.2 33.8 63.6h898.4c24.4 0 55.4-28.8 33.8-63.6l-354.6-527v-216.4c0-12.8-6-24.8-16.2-32.6l-175.2-132.2c-10-11.2-60.2-18.6-65.4 32.6zM139.6 856.4l318.8-473.8c4.6-6.8 7-14.6 7-22.8v-279.2l93.6 70.6v208.6c0 8.2 2.4 16 7 22.8l318.4 473.8h-744.8z" />
<glyph unicode="&#xe90d;" glyph-name="filter-filled" data-tags="filter-filled" d="M390.027 476.121c10.746-11.694 16.646-26.97 16.646-42.773v-465.653c0-28.025 33.818-42.247 53.835-22.545l129.898 148.861c17.383 20.86 26.97 31.185 26.97 51.833v287.398c0 15.803 6.005 31.079 16.646 42.774l372.732 404.443c27.918 30.341 6.427 79.54-34.871 79.54h-919.717c-41.298 0-62.895-49.094-34.871-79.54l372.734-404.338z" />
<glyph unicode="&#xe90e;" glyph-name="invisible" data-tags="invisible" d="M720.806 495.046l-203.873-203.873c111.497 2.61 201.263 92.386 203.873 203.873zM1010.722 483.889c-4.669 5.501-64.935 75.177-160.149 140.934l-64.467-64.467c62.284-41.113 109.792-86.043 135.288-112.36-55.92-57.75-217.452-205.131-409.388-205.131-13.871 0-27.565 0.853-41.093 2.308l-77.35-77.34c37.838-9.462 77.454-15.087 118.443-15.087 274.776 0 489.722 248.792 498.727 259.387 17.687 20.775 17.687 50.95-0.010 71.756zM942.584 794.662c0 2.766-1.081 5.407-3.047 7.351l-73.524 73.513c-4.066 4.066-10.627 4.066-14.703 0l-164.579-164.579c-54.090 19.683-112.87 32.317-174.727 32.317-274.786 0-489.722-248.781-498.737-259.387-17.687-20.796-17.687-50.971 0.010-71.777 5.376-6.301 84.047-97.262 204.912-169.684l-133.718-133.718c-1.955-1.955-3.047-4.585-3.047-7.351 0-2.776 1.092-5.417 3.047-7.351l73.524-73.513c2.028-2.017 4.689-3.047 7.351-3.047s5.324 1.029 7.351 3.047l766.848 766.848c1.944 1.924 3.036 4.565 3.036 7.331zM102.617 447.995c37.755 39.003 123.715 118.838 234.65 166.585-21.638-32.92-34.324-72.255-34.324-114.596 0-48.506 16.647-93.010 44.399-128.435l-63.677-63.667c-84.764 46.999-149.637 107.671-181.049 140.112z" />
<glyph unicode="&#xe90f;" glyph-name="mail" data-tags="mail" d="M1001.512 621.695l-467.025 269.703c-13.942 8.066-31.033 8.066-44.975 0l-467.025-269.703c-13.912-8.066-22.488-22.848-22.488-38.949v-539.255c0-24.856 20.149-44.975 44.975-44.975h934.049c24.826 0 44.975 20.119 44.975 44.975v539.255c0 16.101-8.545 30.883-22.488 38.949zM512 800.517l385.409-222.538-385.409-222.508-385.379 222.508 385.379 222.538zM89.951 88.497v441.419l407.057-235.071c4.587-2.669 9.805-4.048 14.992-4.048s10.374 1.379 14.992 4.048l407.057 235.071v-441.449h-844.098z" />
<glyph unicode="&#xe910;" glyph-name="telephone-24" data-tags="telephone-24" d="M604.696 954.344c-107.234 0-205.174-40.48-279.397-106.937 16.463-26.178 25.816-56.636 26.695-88.074l0.007-0.183c0.374-14.166 1.22-28.336 2.432-42.484 56.298 77.359 147.479 127.778 250.262 127.778 170.606 0 309.404-138.797 309.404-309.404 0-168.808-135.903-306.381-304.037-309.268 15.353-12.829 31.204-25.057 47.536-36.538l0.073-0.055 0.077-0.051c22.237-15.686 40.348-36.253 53.056-59.775 179.992 47.114 313.191 211.13 313.191 405.688 0.004 231.205-188.091 419.304-419.301 419.304zM594.402 99.323c-47.902 38.238-77.788 63.702-120.557 103.321-12.584 11.657-27.962 18.918-43.755 18.918-12.085 0-24.021-3.85-33.846-11.913-10.14-8.536-20.28-17.071-30.424-25.603-82.422 97.951-143.626 212.090-179.603 334.944 12.719 3.722 25.442 7.448 38.161 11.17 28.032 8.583 41.22 38.509 37.106 68.508-8.95 65.296-13.811 97.735-19.35 157.59-2.839 30.681-23.259 57.332-52.525 58.925-4.565 0.443-9.125 0.663-13.65 0.663-108.838 0-203.602-126.151-168.547-280.481 43.62-191.125 138.050-367.226 273.107-509.32 55.324-58.086 123.1-84.389 184.311-84.389 64.574 0 121.847 29.248 149.586 81.308 14.87 25.259 4.070 57.134-20.013 76.359zM478.599 527.281c-28.984-26.893-47.95-48.038-57.965-64.633-7.070-11.704-12.228-24.079-15.338-36.78-1.462-5.979-0.117-12.184 3.689-17.031 3.803-4.839 9.51-7.616 15.665-7.616h138.321c16.947 0 30.736 13.789 30.736 30.736s-13.789 30.736-30.736 30.736h-62.464c0.509 0.601 1.033 1.202 1.568 1.806 4.081 4.594 14.075 14.192 29.699 28.519 16.386 15.038 27.45 26.299 33.82 34.428 9.602 12.221 16.745 24.153 21.225 35.458 4.568 11.521 6.887 23.804 6.887 36.513 0 22.801-8.257 42.154-24.541 57.533-16.177 15.254-38.447 22.984-66.201 22.984-25.219 0-46.638-6.601-63.658-19.621-10.268-7.862-18.174-18.753-23.5-32.38-3.597-9.206-2.667-19.738 2.491-28.168 5.158-8.433 14.111-14.056 23.947-15.038 1.095-0.11 2.187-0.165 3.264-0.165 13.844 0 26.189 8.803 30.725 21.903 1.421 4.107 3.301 7.371 5.594 9.708 4.828 4.92 11.331 7.316 19.885 7.316 8.693 0 15.188-2.264 19.848-6.92 4.649-4.649 6.909-11.43 6.909-20.735 0-8.642-3.088-17.654-9.177-26.794-3.264-4.784-13.020-15.976-40.693-41.759zM755.513 679.933h-23.105c-6.583 0-12.73-3.246-16.445-8.682l-106.853-156.418c-3.118-4.565-4.766-9.902-4.766-15.43v-25.347c0-10.979 8.935-19.914 19.914-19.914h87.719v-21.2c0-17.493 14.232-31.725 31.725-31.725s31.725 14.232 31.725 31.725v21.2h3.169c16.254 0 29.479 13.225 29.479 29.479s-13.225 29.479-29.479 29.479h-3.169v146.919c0 10.979-8.935 19.914-19.914 19.914zM711.981 513.1h-39.374l39.374 58.533v-58.533z" />
<glyph unicode="&#xe911;" glyph-name="hours-24" data-tags="hours-24" d="M337.287 293.252c0 96.092 124.608 111.464 124.608 164.4 0 23.259-18.002 37.165-40.527 37.165-31.143 0-48.046-31.541-48.046-31.541l-36.034 24.022c0 0 24.389 53.303 88.206 53.303 46.915 0 86.709-28.515 86.709-78.823 0-85.579-119.351-100.218-120.482-150.524h124.608v-41.658h-176.78c-1.131 8.617-2.262 16.136-2.262 23.656zM543.47 367.947l114.858 168.162h57.428v-157.647h34.538v-40.192h-34.538v-68.676h-47.678v68.676h-124.608v29.678zM668.077 378.461v82.551c0 13.141 1.894 27.782 1.894 27.782h-0.765c0 0-5.99-14.242-13.141-24.389l-61.555-85.211v-0.733h73.567zM903.155 392.588l-9.275-33.221c-52.718-188.841-245.080-308.003-435.368-260.773-182.77 45.36-296.361 222.462-269.047 402.895l55.072-15.373c12.765-3.564 24.603 8.028 21.305 20.866l-59.891 233.211c-3.296 12.837-19.252 17.291-28.722 8.018l-172.047-168.461c-9.47-9.273-5.351-25.322 7.417-28.886l59.944-16.734c-44.735-244.071 105.838-487.157 351.551-551.142 255.145-66.443 515.386 91.487 586.279 345.432l8.866 31.761c2.557 9.159-2.794 18.655-11.953 21.213l-82.919 23.149c-9.159 2.558-18.656-2.796-21.213-11.953zM1001.136 537.905l-86.956-11.297c-9.43-1.225-16.079-9.862-14.856-19.292l3.427-26.373c1.225-9.43 9.864-16.081 19.292-14.855l86.956 11.297c9.43 1.225 16.079 9.862 14.856 19.292l-3.428 26.373c-1.223 9.428-9.86 16.079-19.29 14.855zM934.194 702.22l-76.39-43.050c-8.284-4.668-11.215-15.168-6.547-23.453l13.056-23.169c4.668-8.284 15.168-11.215 23.453-6.547l76.39 43.050c8.284 4.668 11.215 15.168 6.547 23.453l-13.056 23.169c-4.668 8.284-15.169 11.215-23.453 6.547zM810.577 829.494l-54.704-68.531c-5.933-7.431-4.715-18.266 2.716-24.196l20.786-16.591c7.431-5.933 18.265-4.717 24.196 2.716l54.704 68.531c5.933 7.432 4.715 18.266-2.716 24.198l-20.786 16.591c-7.431 5.93-18.265 4.715-24.196-2.717zM648.281 901.192l-25.048-84.033c-2.717-9.112 2.47-18.703 11.58-21.419l25.488-7.596c9.111-2.717 18.701 2.47 21.419 11.58l25.048 84.033c2.716 9.112-2.47 18.701-11.582 21.419l-25.486 7.596c-9.112 2.717-18.703-2.468-21.419-11.58zM470.946 906.873l8.254-87.298c0.895-9.467 9.296-16.416 18.762-15.521l26.477 2.505c9.467 0.895 16.416 9.295 15.521 18.762l-8.256 87.298c-0.895 9.467-9.296 16.414-18.762 15.519l-26.477-2.503c-9.465-0.895-16.414-9.295-15.519-18.762zM304.395 845.707l40.356-77.847c4.375-8.441 14.768-11.737 23.211-7.36l23.611 12.238c8.441 4.377 11.737 14.768 7.36 23.211l-40.356 77.847c-4.375 8.441-14.768 11.737-23.211 7.36l-23.611-12.239c-8.441-4.374-11.736-14.766-7.36-23.209z" />
<glyph unicode="&#xe912;" glyph-name="clock" data-tags="clock" d="M578.789 894.638c-242.154 0-439.002-193.972-444.939-435.483h-133.85l200.366-223.319 200.345 223.319h-155.539c5.872 179.832 152.935 323.824 333.617 323.824 184.429 0 333.911-149.972 333.911-334.979s-149.482-334.979-333.911-334.979c-73.957 0-142.26 24.162-197.578 64.991l-76.571-81.931c75.591-59.327 170.747-94.72 274.149-94.72 245.891 0 445.211 199.952 445.211 446.638s-199.321 446.638-445.211 446.638zM539.212 687.66v-255.455l163.698-163.666 53.913 53.913-141.334 141.345v223.864h-76.277z" />
<glyph unicode="&#xe913;" glyph-name="technology" data-tags="technology" d="M713.642 960.003h-403.285c-71.858 0-130.316-58.458-130.316-130.316v-763.373c0-71.858 58.458-130.316 130.316-130.316h403.285c71.858 0 130.316 58.458 130.316 130.316v763.373c0 71.858-58.458 130.316-130.316 130.316zM756.186 66.313c0-23.455-19.088-42.543-42.543-42.543h-403.285c-23.455 0-42.543 19.088-42.543 42.543v763.373c0 23.455 19.088 42.543 42.543 42.543h403.285c23.455 0 42.543-19.088 42.543-42.543v-763.373zM569.615 138.577c0-31.818-25.794-57.612-57.612-57.612s-57.612 25.794-57.612 57.612c0 31.818 25.794 57.612 57.612 57.612s57.612-25.794 57.612-57.612zM581.686 806.232h-136.84c-20.199 0-36.572-16.373-36.572-36.572s16.373-36.572 36.572-36.572h136.846c20.199 0 36.572 16.373 36.572 36.572-0.006 20.199-16.379 36.572-36.578 36.572z" />
<glyph unicode="&#xe914;" glyph-name="delivery-truck" data-tags="delivery-truck" d="M35.93 328.329v435.675c0 24.21 19.625 43.836 43.836 43.836h435.451c24.21 0 43.835-19.627 43.835-43.836v-435.677c0-8.070-6.541-14.612-14.612-14.612h-493.898c-8.072 0-14.612 6.542-14.612 14.614zM387.571 179.076c0-50.213-40.707-90.918-90.918-90.918s-90.918 40.706-90.918 90.918c0 50.214 40.707 90.918 90.918 90.918s90.918-40.704 90.918-90.918zM342.11 179.076c0 25.106-20.353 45.459-45.459 45.459s-45.461-20.353-45.461-45.459 20.355-45.461 45.461-45.461 45.459 20.355 45.459 45.461zM218.345 269.996h-203.732c-8.070 0-14.612-6.542-14.612-14.612v-44.332c0-8.070 6.542-14.612 14.612-14.612h163.301c4.263 29.254 19.029 55.095 40.431 73.556zM863.269 179.076c0-50.213-40.707-90.918-90.918-90.918-50.213 0-90.918 40.706-90.918 90.918 0 50.214 40.706 90.918 90.918 90.918 50.211 0.002 90.918-40.704 90.918-90.918zM817.811 179.076c0 25.106-20.355 45.459-45.461 45.459-25.108 0-45.459-20.353-45.459-45.459s20.353-45.461 45.459-45.461 45.461 20.355 45.461 45.461zM1024 255.384v-44.332c0-8.070-6.542-14.612-14.612-14.612h-118.302c-8.461 58.032-58.405 102.78-118.732 102.78-60.339 0-110.284-44.75-118.746-102.78h-238.217c-4.265 29.253-19.029 55.095-40.431 73.556h225.872v417.951c0 16.14 13.084 29.224 29.224 29.224h137.947c38.842 0 75.145-19.294 96.878-51.484l88.931-131.716c13.044-19.32 20.015-42.099 20.015-65.412v-198.562h35.561c8.070 0 14.612-6.542 14.612-14.612zM875.768 530.598l-71.113 101.050c-2.737 3.889-7.195 6.203-11.95 6.203h-110.925c-8.068 0-14.612-6.542-14.612-14.612v-101.050c0-8.072 6.542-14.612 14.612-14.612h182.041c11.836 0 18.76 13.34 11.947 23.022z" />
<glyph unicode="&#xe915;" glyph-name="shield" data-tags="shield" d="M951.527 574.8c0 66.429 0 132.858 0 199.287 0 16.397-6.096 22.073-22.283 23.965-34.266 4.415-69.162 7.358-102.797 14.715-107.421 23.544-203.071 73.576-292.624 136.011-21.232 14.715-21.652 15.136-43.095 0.21-118.773-81.775-245.745-141.477-392.267-150.726-22.283-1.261-25.857-6.307-25.857-28.379 0-119.404-0.631-239.018 0.631-358.632 0.21-29.851 4.204-60.333 10.931-89.343 17.448-76.519 59.071-140.005 113.728-195.293 86.4-87.241 190.878-146.312 304.816-189.196 6.307-2.312 15.556-1.682 21.863 1.051 39.521 17.238 79.462 33.425 117.512 53.606 90.394 47.72 171.118 107.842 232.501 191.088 42.885 58.23 71.684 122.978 74.838 195.923 2.523 65.168 2.102 130.545 2.102 195.713zM511.961 116.104c-183.1 0-331.934 149.045-331.934 331.934s148.834 331.934 331.934 331.934 331.934-148.834 331.934-331.934-148.834-331.934-331.934-331.934zM511.961 711.232c-145.261 0-263.193-118.143-263.193-263.193 0-145.261 118.143-263.193 263.193-263.193 145.261 0 263.193 118.143 263.193 263.193 0 145.261-117.932 263.193-263.193 263.193zM597.52 330.737c-13.034-15.766-29.851-26.487-49.611-31.743-8.619-2.312-12.403-6.937-11.982-15.766s0-17.658 0-26.277c0-7.778-3.994-11.982-11.772-12.193-9.46-0.21-18.92-0.21-28.379 0-8.199 0.21-12.193 4.835-12.193 13.034 0 6.517-0.21 12.823-0.21 19.34-0.21 14.085-0.631 14.715-14.295 16.817-17.448 2.733-34.476 6.727-50.452 14.505-12.613 6.096-13.874 9.25-10.301 22.283 2.733 9.88 5.466 19.55 8.409 29.22 3.574 11.142 6.517 12.613 16.817 7.358 17.658-9.25 36.368-14.295 56.128-16.817 12.613-1.682 25.016-0.21 36.788 4.835 21.863 9.46 25.226 34.896 6.727 50.242-6.307 5.255-13.454 9.039-21.022 12.193-19.13 8.409-39.101 14.925-57.39 25.647-29.431 17.658-48.14 41.833-45.828 77.571 2.523 40.362 25.436 65.588 62.435 79.252 15.346 5.466 15.346 5.255 15.556 21.232 0 5.466 0 10.721 0 16.187 0.21 11.982 2.312 14.085 14.295 14.505 3.784 0.21 7.358 0 11.142 0 25.647 0 25.647 0 25.647-25.647 0-18.079 0-18.079 18.079-21.022 13.874-2.102 26.908-6.307 39.731-11.772 6.937-3.153 9.67-7.988 7.568-15.346-3.153-11.142-6.096-22.073-9.67-33.004-3.363-10.301-6.727-11.772-16.607-7.147-19.971 9.67-40.993 13.664-63.065 12.403-5.886-0.21-11.352-1.051-16.817-3.363-19.13-8.409-22.073-29.431-5.886-42.254 8.199-6.517 17.658-11.352 27.328-15.346 16.817-6.937 33.845-13.664 49.822-22.493 51.083-28.8 64.957-92.916 29.010-136.432z" />
<glyph unicode="&#xe916;" glyph-name="money" data-tags="money" d="M682.666 234.666c46.933 0 85.334 38.399 85.334 85.334 0 46.933-38.399 85.334-85.334 85.334s-85.334-38.399-85.334-85.334c0.002-46.933 38.401-85.334 85.334-85.334zM170.666 661.334c-46.933 0-85.334 38.399-85.334 85.334s38.399 85.334 85.334 85.334h682.666v-85.334h85.334v170.666h-768c-93.866 0-170.666-76.8-170.666-170.668v-554.666c0-119.466 93.868-213.334 213.334-213.334h810.666v682.668h-853.334zM938.666 64h-725.332c-72.533 0-128 55.467-128 128v409.6c25.6-17.066 55.467-25.6 85.334-25.6h768v-512h-0.002z" />
<glyph unicode="&#xe917;" glyph-name="facebook" data-tags="facebook" d="M0 960v-1024h1024v1024h-1024zM677.424 678.193h-80.039c-15.853 0-31.852-16.384-31.852-28.573v-81.614h111.733c-4.499-62.581-13.735-119.808-13.735-119.808h-98.57v-354.66h-146.884v354.698h-71.502v119.344h71.502v97.575c0 17.842-3.614 137.304 150.499 137.304h108.85v-124.266z" />
<glyph unicode="&#xe918;" glyph-name="vk" data-tags="vk" d="M0 960v-1024h1024v1024h-1024zM767.658 393.476c23.507-22.933 48.364-44.525 69.463-69.877 9.322-11.203 18.139-22.76 24.86-35.741 9.54-18.599 0.893-38.975-15.72-40.098l-103.244 0.045c-26.649-2.19-47.885 8.554-65.795 26.786-14.241 14.516-27.553 30.054-41.302 45.063-5.595 6.18-11.512 11.959-18.542 16.569-14.104 9.139-26.338 6.365-34.4-8.325-8.199-14.964-10.125-31.577-10.881-48.241-1.123-24.322-8.462-30.684-32.874-31.854-52.231-2.419-101.765 5.516-147.769 31.809-40.627 23.196-72.067 55.991-99.438 93.074-53.343 72.297-94.197 151.667-130.878 233.321-8.291 18.403-2.235 28.265 18.002 28.62 33.736 0.666 67.458 0.585 101.146 0.045 13.704-0.23 22.796-8.061 28.037-21.007 18.232-44.799 40.532-87.434 68.525-126.992 7.488-10.526 15.101-21.007 25.89-28.438 11.959-8.244 21.099-5.55 26.739 7.843 3.59 8.507 5.161 17.554 5.917 26.649 2.683 31.132 3.004 62.297-1.616 93.337-2.867 19.402-13.839 31.947-33.184 35.615-9.862 1.881-8.383 5.505-3.635 11.158 8.336 9.711 16.179 15.767 31.717 15.767h116.684c18.403-3.59 22.53-11.878 25.031-30.376l0.092-129.674c-0.218-7.166 3.59-28.391 16.443-33.092 10.296-3.405 17.154 4.886 23.334 11.422 27.945 29.653 47.885 64.717 65.703 100.998 7.888 15.95 14.701 32.518 21.328 49.1 4.884 12.27 12.497 18.313 26.338 18.094l112.338-0.137c3.313 0 6.72 0 9.988-0.538 18.896-3.268 24.092-11.422 18.22-29.917-9.173-28.976-27.142-53.169-44.651-77.399-18.772-25.938-38.745-50.968-57.378-77.043-17.019-23.876-15.677-35.881 5.512-56.568z" />
<glyph unicode="&#xe919;" glyph-name="twitter" data-tags="twitter" d="M0 960v-1024h1024v1024h-1024zM793.884 592.578c0.277-6.241 0.419-12.515 0.419-18.815 0-192.204-146.29-413.822-413.815-413.822-82.136 0-158.587 24.074-222.951 65.349 11.379-1.353 22.953-2.041 34.697-2.041 68.142 0 130.854 23.25 180.634 62.268-63.646 1.168-117.362 43.22-135.872 101.005 8.885-1.704 17.998-2.617 27.369-2.617 13.265 0 26.115 1.787 38.32 5.104-66.533 13.366-116.671 72.146-116.671 142.613 0 0.614 0 1.224 0.014 1.832 19.607-10.893 42.031-17.437 65.876-18.193-39.029 26.082-64.699 70.602-64.699 121.057 0 26.658 7.173 51.639 19.695 73.125 71.732-87.999 178.903-145.899 299.78-151.971-2.482 10.65-3.774 21.752-3.774 33.148 0 80.318 65.126 145.437 145.444 145.437 41.835 0 79.636-17.66 106.165-45.925 33.126 6.515 64.255 18.626 92.358 35.291-10.857-33.965-33.918-62.462-63.949-80.466 29.424 3.518 57.452 11.338 83.536 22.906-19.494-29.165-44.151-54.783-72.573-75.285z" />
<glyph unicode="&#xe91a;" glyph-name="instagram" data-tags="instagram" d="M756.975 720.625h-80.637c-15.722-0.115-27.785-11.606-27.898-27.241-0.115-27.355-0.115-54.596 0-81.952 0.115-15.522 12.178-27.155 27.698-27.155h80.608c16.179 0 28.013 11.748 28.013 27.927 0.115 26.813 0.115 53.709 0 80.495 0 16.089-11.833 27.808-27.783 27.925zM512.205 311.608c75.378 0.115 136.235 61.087 136.235 136.462-0.115 75.378-61.084 136.206-136.462 136.206-75.119 0-136.091-61.055-136.206-136.091-0.115-75.49 60.97-136.577 136.433-136.577zM716.213 371.036c-16.294-42.99-43.535-77.493-81.409-103.417-68.315-46.652-157.642-50.568-229.446-10.033-36.304 20.552-64.773 49.021-84.639 85.755-27.241 50.253-33.502 103.388-19.753 158.871h-61.541v-298.22c0-17.093 11.633-28.699 28.699-28.699 10.947-0.115 21.781 0 32.73 0h454.318c18.437 0 29.586 11.262 29.586 29.701v297.334h-61.627c11.291-44.649 9.259-88.413-6.918-131.29zM0 960v-1024h1024v1024h-1024zM866.394 721.624v-547.448c0-40.305-31.157-75.378-71.232-80.066-3.144-0.342-6.259-0.572-9.376-0.572h-547.475c-39.619 0-74.464 30.499-79.721 69.691-0.657 4.573-1.001 9.261-1.001 13.834v542.218c0 40.874 27.355 74.149 67.543 81.837 4.803 0.914 9.835 1.229 14.75 1.229 181.541 0.115 362.993 0.115 544.446 0.115 42.535 0 77.493-31.586 81.837-73.807 0.344-2.343 0.23-4.686 0.23-7.031z" />
<glyph unicode="&#xe91b;" glyph-name="google-plus" data-tags="google-plus" d="M0 960v-1024h1024v1024h-1024zM363.873 188.777c-144.425 0-259.223 114.801-259.223 259.223s114.798 259.223 259.223 259.223c70.361 0 129.611-25.922 174.048-70.361l-70.361-66.657c-18.515 18.515-51.844 40.735-103.69 40.735-88.874 0-159.235-74.063-159.235-162.94s70.361-162.94 159.235-162.94c103.69 0 140.72 74.063 148.127 111.096h-148.127v88.876h244.41c3.704-14.813 3.704-25.922 3.704-44.439 0.002-148.127-99.985-251.816-248.112-251.816zM919.349 410.967h-74.063v-74.063h-74.066v74.063h-74.063v74.063h74.063v74.063h74.066v-74.063h74.063v-74.063z" />
<glyph unicode="&#xe91c;" glyph-name="youtube" data-tags="youtube" d="M0 960v-1024h1024v1024h-1024zM854.068 280.422c-8.689-37.697-39.526-65.531-76.647-69.677-87.87-9.797-176.837-9.862-265.457-9.797-88.584-0.065-177.55 0-265.448 9.797-37.13 4.143-67.964 31.98-76.609 69.677-12.369 53.669-12.369 112.302-12.369 167.58s0.146 113.885 12.504 167.553c8.644 37.733 39.49 65.531 76.573 69.675 87.906 9.824 176.911 9.862 265.495 9.824 88.575 0.036 177.55 0 265.448-9.824 37.13-4.143 67.964-31.942 76.647-69.675 12.367-53.669 12.256-112.275 12.256-167.553s-0.036-113.912-12.394-167.58zM420.526 337.95c75.319 39.058 149.972 77.79 225.366 116.876-75.612 39.452-150.256 78.366-225.366 117.562v-234.437z" />
<glyph unicode="&#xe91d;" glyph-name="pinterest" data-tags="pinterest" d="M0 960v-1024h1024v1024h-1024zM864.611 310.738c-80.236-204.723-295.342-277.155-456.623-226.080 12.057 29.779 25.779 59.162 35.827 89.75 10.093 30.72 16.528 62.64 24.098 92.208 6.516-5.483 13.064-11.295 19.921-16.715 35.639-28.165 75.958-30.9 118.2-20.744 44.887 10.792 80.36 36.243 106.629 73.655 44.429 63.274 60.108 134.859 49.37 210.192-11.104 77.897-57.227 134.268-129.536 162.654-108.947 42.768-212.23 28.37-301.694-50.015-68.806-60.285-91.936-162.485-58.841-242.049 11.471-27.579 29.599-49.224 57.027-62.229 13.9-6.59 19.8-3.903 23.822 10.615 0.299 1.081 0.663 2.146 1.058 3.195 7.703 20.312 5.905 37.012-7.801 56.621-24.981 35.74-20.526 77.113-8.473 116.753 22.856 75.171 90.017 125.328 168.781 126.056 21.099 0.195 42.818-1.613 63.251-6.599 60.777-14.828 100.020-61.831 103.952-124.15 3.155-49.976-4.656-98.526-26.384-144.161-10.758-22.593-24.957-42.683-46.089-56.904-19.852-13.358-41.559-18.742-65.114-12.587-32.453 8.48-50.875 38.086-42.667 70.57 8.507 33.67 19.515 66.712 27.86 100.416 3.528 14.255 5.381 29.736 3.932 44.256-3.948 39.548-41.314 57.991-76.245 38.683-24.467-13.524-36.248-36.129-41.712-62.283-5.629-26.945-2.903-53.502 5.865-79.629 1.762-5.251 2.022-11.738 0.78-17.153-15.87-69.203-32.844-138.164-47.873-207.548-4.386-20.247-3.57-41.629-5.031-62.499-0.279-4-0.040-8.035-0.040-13.349-167.123 69.842-275.911 268.867-206.725 471.003 68.44 199.957 289.835 304.672 489.183 230.644 199.915-74.239 298.794-294.828 221.292-492.574z" />
<glyph unicode="&#xe91e;" glyph-name="linkedin" data-tags="linkedin" d="M554.535 500.1v1.497c-0.306-0.502-0.729-1.004-0.995-1.497h0.995zM0 960v-1024h1024v1024h-1024zM318.502 109.288h-151.926v457.078h151.926v-457.078zM242.539 628.751h-1.004c-50.964 0-83.997 35.111-83.997 78.997 0 44.849 33.999 78.965 85.996 78.965 52.008 0 83.968-34.116 84.963-78.965 0-43.886-32.955-78.997-85.957-78.997zM866.462 109.288h-151.966v244.538c0 61.42-21.956 103.345-76.958 103.345-42.004 0-66.965-28.229-77.961-55.573-3.997-9.767-5.041-23.345-5.041-37.042v-255.271h-151.995c0 0 2.037 414.198 0 457.078h151.995v-64.769c20.194 31.073 56.232 75.499 136.959 75.499 100.008 0 174.967-65.311 174.967-205.696v-262.11z" />
<glyph unicode="&#xe91f;" glyph-name="telegram" data-tags="telegram" d="M710.581 623.177l-375.603-232.954c-6.613-4.101-9.621-12.154-7.314-19.587l50.383-162.348c1.058-3.411 6.029-2.941 6.428 0.609l12.246 108.86c0.472 4.206 2.49 8.087 5.66 10.891l318.068 281.265c7.615 6.732-1.229 18.623-9.869 13.264zM0 960v-1024h1024v1024h-1024zM853.572 693.922l-116.911-558.949c-5.487-26.229-36.25-38.009-57.852-22.153l-176.517 129.57-89.965-91.857c-15.789-16.122-43.065-9.597-49.848 11.927l-64.939 206.058-174.005 51.383c-22.829 6.741-24.175 38.569-1.995 47.213l684.762 266.844c26.064 10.156 52.999-12.655 47.271-40.036z" />
<glyph unicode="&#xe920;" glyph-name="dribbble" data-tags="dribbble" d="M367.274 238.262c40.976-28.566 90.814-45.439 144.551-45.439 27.151 0 52.6 5.527 77.27 13.328-4.393 59.761-16.091 118.743-33.812 175.527-74.439-26.583-140.367-75.855-188.009-143.416zM536.211 434.848c-6.099 15.524-12.479 30.202-19.638 45.16-56.5-24.956-117.753-38.777-180.562-38.777-26.302 0-52.886 3.329-79.188 6.947 0-66.781 26.019-126.827 67.845-172.271 54.515 74.793 128.173 129.308 211.543 158.941zM653.040 660.571c-40.409 26.867-88.827 42.607-141.215 42.607-23.255 0-45.16-4.112-66.713-9.925 36.511-42.396 68.91-88.048 96.060-136.822 42.963 26.583 80.887 61.46 111.868 104.14zM490.487 530.694c-28.215 50.122-61.748 97.197-100.525 140.085-62.529-34.314-109.318-93.578-125.977-165.040 77.84-14.39 156.458-5.244 226.502 24.954zM609.867 397.205c16.872-54.304 28.004-109.953 33.533-166.736 59.763 36.297 104.070 95.846 118.532 166.455-51.256 9.995-102.796 10.278-152.065 0.281zM566.979 506.026c8.579-18.009 16.303-36.297 23.536-54.801 56.995 12.691 116.545 12.972 176.096 2.482-1.42 65.646-28.004 125.196-70.042 169.716-36.013-48.137-80.039-87.765-129.591-117.398zM0 960v-1024h1024v1024h-1024zM511.824 136.038c-171.987 0-311.787 140.155-311.787 312.14s139.8 311.784 311.787 311.784c171.982 0 312.138-139.8 312.138-311.784s-140.155-312.14-312.138-312.14z" />
<glyph unicode="&#xe921;" glyph-name="viber" data-tags="viber" d="M665.265 723.215c-101.696 19.346-204.831 19.346-306.55 0-44.489-9.909-100.461-63.543-111.403-106.685-18.2-83.474-18.2-168.094 0-251.567 10.943-43.141 66.914-96.776 111.403-106.685 0.011-0.002 0.022-0.004 0.034-0.007 1.982-0.389 3.427-2.105 3.427-4.125v-122.283c0-6.112 7.46-9.123 11.707-4.696l58.083 59.611c0 0 46.285 47.514 54.607 56.057 0.813 0.836 1.937 1.287 3.101 1.256 58.643-1.625 117.349 3.112 175.592 14.185 44.489 9.909 100.483 63.543 111.403 106.685 18.223 83.474 18.223 168.094 0 251.567-10.922 43.143-66.891 96.778-111.403 106.687zM666.815 358.737c-8.898-18.892-21.845-34.61-40.521-44.642-5.269-2.831-11.567-3.746-17.515-5.577-6.84 2.076-13.358 3.472-19.411 5.984-62.726 26.024-120.454 59.598-166.181 111.064-26.004 29.266-46.359 62.308-63.561 97.275-8.159 16.582-15.034 33.814-22.042 50.934-6.393 15.612 3.022 31.74 12.933 43.503 9.3 11.039 21.267 19.488 34.228 25.714 10.116 4.86 20.094 2.058 27.482-6.516 15.971-18.537 30.642-38.023 42.521-59.51 7.305-13.216 5.301-29.372-7.938-38.366-3.218-2.186-6.15-4.752-9.147-7.222-2.629-2.164-5.103-4.35-6.905-7.28-3.294-5.359-3.451-11.684-1.33-17.513 16.326-44.867 43.845-79.755 89.004-98.546 7.228-3.006 14.484-6.507 22.809-5.536 13.942 1.629 18.456 16.922 28.226 24.912 9.549 7.808 21.753 7.911 32.039 1.402 10.289-6.512 20.263-13.502 30.176-20.566 9.731-6.934 19.42-13.718 28.397-21.622 8.626-7.599 11.599-17.571 6.739-27.889zM585.827 504.943c-3.894-0.070-2.364 0.007-0.883 0.049-6.276 0.22-9.689 3.914-10.363 9.92-0.492 4.388-0.881 8.835-1.928 13.104-2.063 8.408-6.532 16.2-13.603 21.353-3.339 2.433-7.123 4.209-11.086 5.35-5.035 1.454-10.264 1.054-15.288 2.285-5.456 1.335-8.473 5.754-7.617 10.873 0.78 4.658 5.312 8.293 10.401 7.925 31.81-2.296 54.544-18.742 57.789-56.191 0.229-2.642 0.499-5.433-0.088-7.961-0.953-4.11-3.889-6.249-6.858-6.637 0.243-0.004 0.195-0.025-0.476-0.070zM566.047 590.594c-9.761 4.779-20.317 7.75-31.017 9.52-4.676 0.773-9.401 1.243-14.1 1.896-5.694 0.791-8.732 4.42-8.464 10.030 0.252 5.258 4.094 9.039 9.824 8.716 18.829-1.070 37.016-5.139 53.756-14.003 34.041-18.027 53.486-46.482 59.162-84.478 0.258-1.721 0.67-3.427 0.8-5.154 0.324-4.265 0.524-8.536 0.852-14.16-0.135-1.025-0.207-3.433-0.804-5.703-2.177-8.237-14.666-9.269-17.542-0.955-0.852 2.467-0.98 5.274-0.984 7.929-0.029 17.378-3.806 34.738-12.569 49.857-9.008 15.535-22.773 28.599-38.912 36.504zM671.23 473.167c-6.577-0.079-9.536 5.424-9.963 11.322-0.845 11.675-1.429 23.402-3.040 34.98-8.493 61.119-57.23 111.684-118.063 122.535-9.154 1.634-18.526 2.063-27.797 3.036-5.862 0.616-13.54 0.971-14.839 8.258-1.090 6.109 4.067 10.974 9.884 11.286 1.582 0.085 3.173 0.013 4.761 0.007 78.789-2.209 4.808-0.171 0.211-0.011 81.95-2.388 149.235-56.809 163.665-137.852 2.46-13.821 3.337-27.952 4.431-41.98 0.458-5.898-2.883-11.504-9.251-11.581zM0 960v-1024h1024v1024h-1024zM835.853 351.571l-0.202-0.809c-16.358-66.127-90.102-137.086-157.825-151.848l-0.764-0.157c-54.758-10.448-109.92-15.661-165.060-15.661-16.23 0-32.459 0.506-48.68 1.413l-74.789-77.742c-18.515-19.279-51.073-6.157-51.073 20.559v73.816c-65.195 18.618-133.448 86.314-149.129 149.621l-0.18 0.809c-20.222 92.349-20.222 186.002 0 278.351l0.18 0.809c16.38 66.127 90.125 137.086 157.825 151.848l0.786 0.157c109.516 20.897 220.582 20.897 330.12 0l0.764-0.157c67.723-14.762 141.467-85.721 157.825-151.848l0.202-0.809c20.222-92.351 20.222-186.004 0-278.353z" />
<glyph unicode="&#xe922;" glyph-name="comment" data-tags="comment" d="M853.333 874.667h-682.667c-46.933 0-85.333-38.4-85.333-85.333v-768l170.667 170.667h597.333c46.933 0 85.333 38.4 85.333 85.333v512c0 46.933-38.4 85.333-85.333 85.333zM853.333 277.333h-597.333l-85.333-85.333v597.333h682.667v-512z" />
<glyph unicode="&#xe923;" glyph-name="shield2" data-tags="shield" d="M512-64c0 0 418.655 184 418.655 448s0 448 0 448-25.312-3.615-64.897-3.615c-87.615 0-245.375 17.728-353.759 131.615-108.383-113.888-266.113-131.615-353.792-131.615-39.585 0-64.863 3.615-64.863 3.615s0-184 0-448 418.655-448 418.655-448zM157.345 764.385c0.288 0 0.577 0 0.897 0 84.319 0 233.664 15.329 353.792 109.407 120.128-94.081 269.439-109.407 353.792-109.407 0.288 0 0.577 0 0.897 0v-380.385c0-168.417-236.001-319.072-354.72-377.375-118.815 58.111-354.655 208.415-354.655 377.375v380.385zM754.464 618.015l-52.928 35.97-224.321-330.336-138.687 98.431-37.056-52.159 192-136.257z" />
<glyph unicode="&#xe924;" glyph-name="big-star" data-tags="big-star" d="M1020.224 574.196c-8.864 25.569-31.617 44.289-59.010 48.354l-266.44 39.617-115.812 240.456c-12.192 25.249-38.273 41.409-66.946 41.409s-54.754-16.161-66.946-41.409l-115.812-240.456-266.472-39.617c-27.361-4.064-50.114-22.785-58.946-48.354-8.8-25.633-2.144-53.858 17.185-73.122l195.27-194.95-45.281-270.44c-4.608-27.233 7.2-54.562 30.337-70.498 12.704-8.736 27.649-13.184 42.593-13.184 12.288 0 24.609 3.008 35.777 8.992l232.295 125.060 232.327-125.060c11.168-5.984 23.489-8.992 35.745-8.992 14.944 0 29.889 4.448 42.625 13.184 23.137 15.936 34.881 43.265 30.305 70.498l-45.313 270.44 195.334 194.95c19.297 19.297 25.921 47.521 17.185 73.122zM754.84 356.397c-16.385-16.321-23.809-39.329-20.065-61.89l45.313-270.44-232.327 124.996c-11.136 6.016-23.425 8.992-35.777 8.992-12.288 0-24.609-3.008-35.745-8.992l-232.327-124.996 45.313 270.44c3.776 22.561-3.648 45.569-20.033 61.89l-195.27 194.95 266.44 39.681c24.353 3.616 45.313 18.849 55.778 40.577l115.876 240.392 115.844-240.424c10.496-21.729 31.425-36.929 55.746-40.577l266.504-39.681-195.27-194.918z" />
<glyph unicode="&#xe925;" glyph-name="business" data-tags="business" d="M0 580.973v-380.818c0-57.174 46.35-103.524 103.524-103.524h816.952c57.174 0 103.524 46.35 103.524 103.524v380.818h-1024zM111.026 446.553h252.55v-66.782h-252.55v66.782zM444.422 248.607h-333.396v66.782h333.396v-66.782zM812.552 247.157c-21.858 0-42.066 7.006-58.552 18.862-16.486-11.856-36.694-18.862-58.552-18.862-55.46 0-100.422 44.96-100.422 100.422 0.002 55.46 44.962 100.42 100.422 100.42 21.858 0 42.066-7.006 58.552-18.862 16.486 11.856 36.694 18.862 58.552 18.862 55.46 0 100.422-44.96 100.422-100.422s-44.96-100.42-100.422-100.42zM920.476 799.369h-816.952c-57.174 0-103.524-46.35-103.524-103.524v-48.088h1024v48.088c0 57.174-46.35 103.524-103.524 103.524z" />
<glyph unicode="&#xe926;" glyph-name="money2" data-tags="money" d="M998.928 832.531c-16.709 16.709-36.796 25.063-60.258 25.063h-853.336c-23.466 0-43.549-8.352-60.27-25.063-16.711-16.713-25.063-36.796-25.063-60.264v-648.524c0-23.473 8.352-43.558 25.063-60.27 16.721-16.711 36.804-25.067 60.27-25.067h853.336c23.462 0 43.547 8.356 60.258 25.067 16.709 16.709 25.072 36.794 25.072 60.27v648.524c0 23.468-8.363 43.551-25.072 60.264zM955.726 123.73c0-4.629-1.687-8.617-5.064-12.006-3.375-3.362-7.377-5.049-11.993-5.049h-853.336c-4.62 0-8.621 1.687-11.998 5.062-3.375 3.387-5.066 7.377-5.066 12.006v324.257h887.459v-324.27zM955.726 652.807h-887.459v119.467c0 4.621 1.685 8.613 5.066 11.998 3.379 3.368 7.381 5.059 11.998 5.059h853.336c4.616 0 8.617-1.683 11.993-5.059 3.377-3.385 5.064-7.377 5.064-11.998v-119.467h0.002zM136.537 243.208h136.531v-68.272h-136.531v68.272zM341.338 243.208h204.798v-68.272h-204.798v68.272z" />
<glyph unicode="&#xe927;" glyph-name="smartphone" data-tags="iphone" d="M546.82 65.029c0-19.231-15.59-34.821-34.821-34.821s-34.821 15.59-34.821 34.821c0 19.231 15.59 34.821 34.821 34.821s34.821-15.59 34.821-34.821zM712.862 960h-401.727c-58.359 0-105.832-47.477-105.832-105.832v-812.337c0-58.354 47.477-105.832 105.832-105.832h401.731c58.354 0 105.832 47.477 105.832 105.832v812.337c-0.005 58.354-47.477 105.832-105.836 105.832zM273.571 752.911h476.856v-568.416h-476.856v568.416zM311.136 891.733h401.731c20.712 0 37.565-16.853 37.565-37.565v-32.991h-476.861v32.991c0 20.712 16.848 37.565 37.565 37.565zM712.862 4.267h-401.727c-20.712 0-37.565 16.853-37.565 37.565v74.402h476.856v-74.402c0-20.712-16.848-37.565-37.565-37.565z" />
<glyph unicode="&#xf101;" glyph-name="left-sight" data-tags="left-sight" d="M793.868 906.774l-457.28-458.774 457.28-458.774-53.402-53.227-510.334 512 510.334 512z" />
<glyph unicode="&#xf102;" glyph-name="top-sight" data-tags="top-sight" d="M512 729.868l512-510.332-53.227-53.402-458.774 457.28-458.772-457.28-53.229 53.402z" />
<glyph unicode="&#xf103;" glyph-name="refresh" data-tags="refresh" d="M1024 542.462h-317.712l148.436 147.725c-78.465 111.963-208.416 181.412-347.448 181.412-233.576 0-423.602-190.023-423.602-423.6 0-233.574 190.025-423.6 423.604-423.6 163.557 0 309.624 91.43 381.192 238.616l75.25-36.592c-41.018-84.348-104.559-155.666-183.754-206.242-81.398-51.98-175.691-79.457-272.69-79.457-279.712 0-507.276 227.562-507.276 507.276s227.562 507.276 507.272 507.276c97.73 0 192.623-27.863 274.43-80.574 51.832-33.398 96.805-75.711 133.131-124.691l109.168 108.646v-316.194z" />
<glyph unicode="&#xf10c;" glyph-name="width" data-tags="width" d="M1024 448l-179.279-179.281v148.088h-665.442v-148.088l-179.279 179.281 179.279 179.279v-148.086h665.442v148.086z" />
<glyph unicode="&#xf10d;" glyph-name="right-sight" data-tags="right-sight" d="M283.534 960l510.334-512-510.334-512-53.402 53.227 457.282 458.774-457.282 458.774z" />
<glyph unicode="&#xf10e;" glyph-name="left" data-tags="left" d="M1024 480.254v-64.51h-860.122v-131.625l-163.879 163.877 163.879 163.885v-131.627h860.122z" />
<glyph unicode="&#xf10f;" glyph-name="cart" data-tags="cart" d="M1013.156 656.516c9.037-11.297 12.422-24.854 10.166-40.67l-42.928-246.272c-1.506-12.807-7.344-23.348-17.51-31.631-10.168-8.285-21.65-12.428-34.455-12.428h-625.844l-12.426-70.039h596.472c14.309 0 26.729-5.084 37.277-15.25 10.547-10.168 15.813-22.783 15.813-37.846s-5.268-27.676-15.813-37.844c-10.549-10.168-22.969-15.25-37.277-15.25h-659.734c-15.816 0-29.373 6.4-40.67 19.197-10.543 12.809-14.686 27.496-12.426 44.059l28.242 153.637-42.928 431.542-122.006 38.41c-14.309 4.518-24.664 13.182-31.066 25.982-6.4 12.805-7.719 26.359-3.953 40.668 4.518 14.309 13.367 24.664 26.547 31.066s26.547 7.719 40.104 3.953l155.896-49.705c9.791-3.014 17.887-8.662 24.287-16.945 6.402-8.285 10.355-17.701 11.863-28.244l9.037-85.855 707.18-79.078c15.814-2.254 27.865-9.408 36.15-21.457zM307.108 119.914c22.594 0 41.797-7.906 57.613-23.727 15.816-15.811 23.723-35.020 23.723-57.613 0-22.588-7.906-41.986-23.723-58.18-15.816-16.191-35.020-24.287-57.613-24.287s-41.799 8.096-57.613 24.287c-15.816 16.191-23.725 35.586-23.725 58.18s7.908 41.801 23.725 57.613c15.813 15.82 35.018 23.727 57.613 23.727zM789.478 119.914c22.59 0 41.801-7.906 57.615-23.727 15.809-15.811 23.725-35.020 23.725-57.613 0-22.588-7.91-41.986-23.725-58.18-15.814-16.191-35.025-24.287-57.615-24.287-22.594 0-41.801 8.096-57.611 24.287-15.816 16.191-23.729 35.586-23.729 58.18s7.908 41.801 23.729 57.613c15.813 15.82 35.018 23.727 57.611 23.727z" />
<glyph unicode="&#xf111;" glyph-name="wish2" data-tags="wish2" d="M1024 601.844c0-86.361-37.219-164.029-96.488-217.844h0.488l-320-320c-32-32-64-64-96-64s-64 32-96 64l-320 320h0.49c-59.271 53.814-96.49 131.482-96.49 217.844 0 162.459 131.697 294.156 294.156 294.156 86.361 0 164.029-37.219 217.844-96.49 53.814 59.271 131.48 96.49 217.844 96.49 162.457 0 294.156-131.697 294.156-294.156zM841.468 478.768c35.164 31.926 54.531 75.637 54.531 123.076 0 91.619-74.539 166.156-166.156 166.156-47.441 0-91.148-19.365-123.074-54.533l-94.77-104.379-94.768 104.381c-31.926 35.166-75.637 54.531-123.076 54.531-91.619 0-166.156-74.537-166.156-166.156 0-47.439 19.365-91.15 54.531-123.078l323.978-324.256c1.676-1.678 3.529-3.525 5.49-5.479 1.955 1.947 3.813 3.801 5.49 5.479z" />
<glyph unicode="&#xf112;" glyph-name="options" data-tags="options" d="M1020.782 504.852c4.336-38.779 4.281-77.938-0.229-116.438-1.779-14.986-15.287-26.293-29.967-25.102l-6.332 0.164c-45.26 0-87.338-27.881-104.742-69.406-18.512-44.113-6.949-95.457 28.688-127.729 11.174-10.111 12.508-27.18 3.059-38.912-24.35-30.326-52.201-57.873-82.83-81.893-11.791-9.109-28.518-7.779-38.641 3.232-30.461 33.463-84.666 46.059-126.801 28.85-43.588-17.848-71.77-61.734-70.053-109.184 0.5-14.898-10.5-27.686-25.348-29.322-18.734-2.084-37.471-3.113-56.205-3.113-19.736 0-39.418 1.139-58.982 3.422-14.955 1.721-26.016 14.84-25.127 29.908 2.721 47.977-25.078 92.641-69.271 111.127-42.191 17.709-97.006 5.17-127.639-28.713-10.168-11.205-27.238-12.539-38.969-3.086-29.908 24.072-57.207 51.645-80.998 81.945-9.23 11.701-7.84 28.52 3.113 38.582 35.021 32.102 46.527 82.967 28.629 126.605-17.957 43.697-60.762 71.301-105.348 70.162-14.672 0-31.965 10.721-33.574 25.176-4.336 38.779-4.281 77.973 0.223 116.439 1.775 14.76 13.338 25.656 29.572 25.135 50.029 0 93.73 27.123 111.404 69.209 18.514 44.143 7.008 95.479-28.627 127.75-11.119 10.115-12.51 27.156-3.057 38.914 24.236 30.244 52.145 57.814 82.83 81.889 11.727 9.141 28.572 7.785 38.637-3.25 30.459-33.496 84.893-45.951 126.744-28.855 43.645 17.875 71.777 61.764 70.109 109.24-0.5 14.871 10.508 27.656 25.352 29.295 38.359 4.256 76.939 4.119 115.184-0.305 15.016-1.748 26.023-14.844 25.129-29.904-2.721-47.949 25.076-92.619 69.158-111.162 42.359-17.674 97.178-5.113 127.697 28.686 10.119 11.205 27.242 12.51 38.912 3.145 29.801-23.875 57.096-51.42 81.111-81.916 9.23-11.701 7.895-28.545-3.113-38.607-34.969-32.076-46.471-82.971-28.633-126.609 17.461-42.607 59.098-70.158 106.018-70.158 14.514 0 31.297-10.816 32.916-25.211zM512.81 276.136c94.172 0 170.775 76.604 170.775 170.779 0 94.172-76.604 170.781-170.775 170.781-94.178 0-170.781-76.609-170.781-170.781 0-94.176 76.604-170.779 170.781-170.779z" />
<glyph unicode="&#xf113;" glyph-name="cat" data-tags="cat" d="M0 896h1024v-192h-1024v192zM0 576h1024v-192h-1024v192zM0 256h1024v-192h-1024v192z" />
<glyph unicode="&#xf115;" glyph-name="wish1" data-tags="wish1" d="M940.798 812.688c110.936-110.936 110.936-291.434 0.004-402.328l-397.478-397.48c-8.563-8.584-19.826-12.873-31.070-12.873-2.855 0-5.707 0.26-8.541 0.818-8.453 1.539-16.545 5.531-23.043 12.055l-397.478 397.48c-110.926 110.895-110.926 291.392 0 402.328 53.727 53.732 125.184 83.301 201.164 83.301 75.982 0 147.434-29.568 201.164-83.301l26.479-26.482 26.477 26.482c53.748 53.732 125.182 83.301 201.182 83.301 75.988 0 147.414-29.568 201.142-83.301zM878.658 472.498c76.666 76.65 76.666 201.358 0 278.044-37.121 37.127-86.492 57.549-139 57.549-52.523 0-101.9-20.422-139.021-57.549l-57.549-57.59c-16.502-16.479-45.658-16.479-62.162 0l-57.57 57.59c-37.119 37.127-86.492 57.549-139 57.549-52.504 0-101.891-20.422-139.021-57.549-76.658-76.688-76.658-201.396 0-278.044l366.666-366.662z" />
<glyph unicode="&#xf116;" glyph-name="compare" data-tags="compare" d="M1024 38.412c0-22.639-18.336-40.967-40.959-40.967h-204.798c-22.623 0-40.951 18.328-40.951 40.967v737.258c0 22.633 18.328 40.967 40.951 40.967h204.808c22.613 0 40.949-18.334 40.949-40.967v-737.258zM389.128-2.555c-22.639 0-40.967 18.328-40.967 40.967v819.184c0 22.631 18.336 40.959 40.967 40.959h225.28c22.623 0 40.959-18.328 40.959-40.959v-819.184c0-22.639-18.336-40.967-40.959-40.967h-225.28zM40.959 570.878h204.798c22.631 0 40.959-18.326 40.959-40.959v-491.508c0-22.639-18.328-40.967-40.959-40.967h-204.798c-22.633 0-40.959 18.328-40.959 40.967v491.508c0 22.633 18.326 40.959 40.959 40.959z" />
<glyph unicode="&#xf117;" glyph-name="compare2" data-tags="compare2" d="M556.806 257.48c0 37.615 9.188 75.127 26.592 108.311l159.334 326.994h-461.358l159.336-326.994c17.402-33.184 26.592-70.586 26.592-108.311 0-62.482-24.322-121.068-68.533-165.174-44.104-44.102-102.801-68.424-165.172-68.424-62.373 0-121.068 24.322-165.172 68.424-44.104 44.105-68.426 102.801-68.426 165.174 0 37.615 9.188 75.127 26.592 108.312l159.227 326.992h-34.158c-14.918 0-27.025 12.107-27.025 27.023v45.076c0 14.918 12.107 27.025 27.025 27.025h203.328c4.975 44.752 71.67 80.207 153.283 80.207 81.611 0 148.307-35.455 153.279-80.207h203.33c14.918 0 27.023-12.107 27.023-27.025v-45.076c0-14.916-12.105-27.023-27.023-27.023h-26.701l159.229-326.994c17.404-33.184 26.592-70.586 26.592-108.311 0-62.482-24.215-121.068-68.426-165.174-44.104-44.102-102.801-68.424-165.172-68.424s-121.068 24.322-165.172 68.424c-44.104 44.105-68.424 102.801-68.424 165.174zM382.552 336.93l-148.955 305.59-149.391-306.562c-12.863-24.428-19.35-50.805-19.35-78.584h337.476c0 27.779-6.484 54.154-19.348 78.584zM641.014 335.958c-12.863-24.32-19.35-50.805-19.35-78.695h337.476c0 27.783-6.486 54.158-19.35 78.588l-0.432 0.973-148.957 305.698-149.172-306.128z" />
</font>
</defs>
</svg>
